تعلن الإدارة أنه تم نقل المنتدى الى الإسم الجديد

 يمكنكم متابعة نشاطكم معنا على الرابط الجديد

www.stardima.com/vb


العودة   منتدى ستارديما عالم جميل من المفاجآت > ₪ منتديات الأنمي والكارتون للشباب ₪ > ₪ منتدى مسلسلات الأنمي للشباب ₪
التعليمـــات التقويم البحث مشاركات اليوم اجعل كافة الأقسام مقروءة

₪ منتدى مسلسلات الأنمي للشباب ₪ منتدى مسلسلات الأنمي والكرتون للشباب يتم طرحها هنا...

إضافة رد
 
LinkBack أدوات الموضوع انواع عرض الموضوع
  #1  
قديم 04-29-2013, 09:54 PM
 
تاريخ التسجيل: Nov 2012
المشاركات: 51
معدل تقييم المستوى: 0
زيااااد is on a distinguished road
Exclamation المحقق كونان الجزء الثامن مدبلج! (الموضوع يجدد يومياً)









أيها الإخوة الأعزاء،

حصرياً، و على موقع stardima.com فقط


أقدم لكم اليوم الجزء الثامن مدبلج من المسلسل الرائع "المحقق كونان".

الحلقة 353 من المسلسل و هي الحلقة 1 من
الجزءالثامن.
عنوان الحلقة هو: لقاء الصديقتين (الجزء الاول)



الحجم 434 mb
الصيغة mkv


[Hides=MediaInfo]GeneralUnique ID : 196988562628206777369529030085853085877 (0x94329DFD5444898EB216304D8F8880B5)
Complete name : F:\Movies\Cartoon\Detective Conan\Conan_S8_353.mkv
Format : Matroska
Format version : Version 2
File size : 434 MiB
Duration : 23mn 56s
Overall bit rate mode : Variable
Overall bit rate : 2 535 Kbps
Encoded date : UTC 2013-04-29 19:50:34
Writing application : mkvmerge v5.8.0 ('No Sleep / Pillow') built on Sep 2 2012 15:37:04
Writing library : libebml v1.2.3 + libmatroska v1.3.0


Video
ID : 1
Format : MPEG Video
Format version : Version 2
Format profile : Main@Main
Format settings, BVOP : No
Format settings, Matrix : Custom
Codec ID : V_MPEG2
Codec ID/Info : MPEG 1 or 2 Video
Bit rate mode : Variable
Bit rate : 2 357 Kbps
Maximum bit rate : 15.0 Mbps
Width : 720 pixels
Height : 576 pixels
Display aspect ratio : 4:3
Frame rate mode : Variable
Original frame rate : 25.000 fps
Standard : PAL
Color space : YUV
Chroma subsampling : 4:2:0
Bit depth : 8 bits
Scan type : Interlaced
Scan order : Top Field First
Compression mode : Lossy
Language : Arabic
Default : No
Forced : No


Audio
ID : 2
Format : MPEG Audio
Format version : Version 1
Format profile : Layer 2
Muxing mode : Header stripping
Codec ID : A_MPEG/L2
Codec ID/Hint : MP2
Duration : 23mn 56s
Bit rate mode : Constant
Bit rate : 128 Kbps
Channel(s) : 2 channels
Sampling rate : 48.0 KHz
Compression mode : Lossy
Delay relative to video : 16ms
Stream size : 21.9 MiB (5%)[/Hides]














 http://star-dima.com/download/817400/


[Grad]^v^v^v^v^v^v^v^v^v^v^v^v^v^v^v^v^v^v^v^v^v^v^[/Grad]

الحلقة 354 من المسلسل و هي الحلقة 2 من الجزءالثامن.
عنوان الحلقة هو: لقاء الصديقتين (الجزء الثاني)


الحجم 437 mb
الصيغة mkv


[Hides=MediaInfo]
General
Unique ID : 202811420891214094764615658695228773883 (0x98940F112CA8638C8AD53360A32DD5FB)
Complete name : F:\Movies\Cartoon\Detective Conan\Conan_S8_354.mkv
Format : Matroska
Format version : Version 2
File size : 437 MiB
Duration : 23mn 58s
Overall bit rate mode : Variable
Overall bit rate : 2 551 Kbps
Encoded date : UTC 2013-05-01 22:29:52
Writing application : mkvmerge v5.8.0 ('No Sleep / Pillow') built on Sep 2 2012 15:37:04
Writing library : libebml v1.2.3 + libmatroska v1.3.0


Video
ID : 1
Format : MPEG Video
Format version : Version 2
Format profile : Main@Main
Format settings, BVOP : No
Format settings, Matrix : Custom
Codec ID : V_MPEG2
Codec ID/Info : MPEG 1 or 2 Video
Bit rate mode : Variable
Bit rate : 2 372 Kbps
Maximum bit rate : 15.0 Mbps
Width : 720 pixels
Height : 576 pixels
Display aspect ratio : 4:3
Frame rate mode : Variable
Original frame rate : 25.000 fps
Standard : PAL
Color space : YUV
Chroma subsampling : 4:2:0
Bit depth : 8 bits
Scan type : Interlaced
Scan order : Top Field First
Compression mode : Lossy
Language : Arabic
Default : No
Forced : No


Audio
ID : 2
Format : MPEG Audio
Format version : Version 1
Format profile : Layer 2
Muxing mode : Header stripping
Codec ID : A_MPEG/L2
Codec ID/Hint : MP2
Duration : 23mn 58s
Bit rate mode : Constant
Bit rate : 128 Kbps
Channel(s) : 2 channels
Sampling rate : 48.0 KHz
Compression mode : Lossy
Delay relative to video : 16ms
Stream size : 22.0 MiB (5%)
Language : Arabic
Default : Yes
Forced : No



[/Hides]












http://star-dima.com/download/817410/


[Grad]^v^v^v^v^v^v^v^v^v^v^v^v^v^v^v^v^v^v^v^v^v^v^[/Grad]

الحلقة 355 من المسلسل و هي الحلقة 3 من الجزءالثامن.
عنوان الحلقة هو: جريمةٌ في دار السينما (الجزء الاول)


الحجم 434 mb
الصيغة mkv



[Hides=MediaInfo]GeneralUnique ID : 229630859985505513455759343848695010423 (0xACC14B813290FB79BB18FE12AE341477)
Complete name : F:\Movies\Cartoon\Detective Conan\Conan_S8_355.mkv
Format : Matroska
Format version : Version 2
File size : 434 MiB
Duration : 23mn 58s
Overall bit rate mode : Variable
Overall bit rate : 2 532 Kbps
Encoded date : UTC 2013-05-08 08:18:35
Writing application : mkvmerge v5.8.0 ('No Sleep / Pillow') built on Sep 2 2012 15:37:04
Writing library : libebml v1.2.3 + libmatroska v1.3.0


Video
ID : 1
Format : MPEG Video
Format version : Version 2
Format profile : Main@Main
Format settings, BVOP : No
Format settings, Matrix : Custom
Codec ID : V_MPEG2
Codec ID/Info : MPEG 1 or 2 Video
Bit rate mode : Variable
Bit rate : 2 354 Kbps
Maximum bit rate : 15.0 Mbps
Width : 720 pixels
Height : 576 pixels
Display aspect ratio : 4:3
Frame rate mode : Variable
Original frame rate : 25.000 fps
Standard : PAL
Color space : YUV
Chroma subsampling : 4:2:0
Bit depth : 8 bits
Scan type : Interlaced
Scan order : Top Field First
Compression mode : Lossy
Language : Arabic
Default : No
Forced : No


Audio
ID : 2
Format : MPEG Audio
Format version : Version 1
Format profile : Layer 2
Muxing mode : Header stripping
Codec ID : A_MPEG/L2
Codec ID/Hint : MP2
Duration : 23mn 58s
Bit rate mode : Constant
Bit rate : 128 Kbps
Channel(s) : 2 channels
Sampling rate : 48.0 KHz
Compression mode : Lossy
Delay relative to video : 16ms
Stream size : 22.0 MiB (5%)
Language : Arabic
Default : Yes
Forced : No


[/Hides]
















http://star-dima.com/download/817421/


[Grad]^v^v^v^v^v^v^v^v^v^v^v^v^v^v^v^v^v^v^v^v^v^v^[/Grad]





الحلقة 356 من المسلسل و هي الحلقة 4 من الجزءالثامن.



عنوان الحلقة هو: جريمةٌ في دار السينما (الجزء الثاني)


الحجم 429 mb
الصيغة mkv


[Hides=MediaInfo]GeneralUnique ID : 177674560384294122843709278506373572197 (0x85AAE028A1CA51158B511E025FC36665)
Complete name : F:\Movies\Cartoon\Detective Conan\Conan_S8_356.mkv
Format : Matroska
Format version : Version 2
File size : 429 MiB
Duration : 24mn 1s
Overall bit rate mode : Variable
Overall bit rate : 2 498 Kbps
Encoded date : UTC 2013-05-08 08:47:29
Writing application : mkvmerge v5.8.0 ('No Sleep / Pillow') built on Sep 2 2012 15:37:04
Writing library : libebml v1.2.3 + libmatroska v1.3.0


Video
ID : 1
Format : MPEG Video
Format version : Version 2
Format profile : Main@Main
Format settings, BVOP : No
Format settings, Matrix : Custom
Codec ID : V_MPEG2
Codec ID/Info : MPEG 1 or 2 Video
Bit rate mode : Variable
Bit rate : 2 321 Kbps
Maximum bit rate : 15.0 Mbps
Width : 720 pixels
Height : 576 pixels
Display aspect ratio : 4:3
Frame rate mode : Variable
Original frame rate : 25.000 fps
Standard : PAL
Color space : YUV
Chroma subsampling : 4:2:0
Bit depth : 8 bits
Scan type : Interlaced
Scan order : Top Field First
Compression mode : Lossy
Language : Arabic
Default : No
Forced : No


Audio
ID : 2
Format : MPEG Audio
Format version : Version 1
Format profile : Layer 2
Muxing mode : Header stripping
Codec ID : A_MPEG/L2
Codec ID/Hint : MP2
Duration : 24mn 1s
Bit rate mode : Constant
Bit rate : 128 Kbps
Channel(s) : 2 channels
Sampling rate : 48.0 KHz
Compression mode : Lossy
Delay relative to video : 16ms
Stream size : 22.0 MiB (5%)
Language : Arabic
Default : Yes
Forced : No


[/Hides]














 http://star-dima.com/download/817430/




[Grad]^v^v^v^v^v^v^v^v^v^v^v^v^v^v^v^v^v^v^v^v^v^v^[/Grad]





الحلقة 357 من المسلسل و هي الحلقة 5 من الجزءالثامن.




عنوان الحلقة هو: سر الشجار



الحجم 438 mb
الصيغة mkv




[Hides=MediaInfo] General
Unique ID : 254618783714459870089016846459025682549 (0xBF8DCB4350F1C8539D804C182676F075)
Complete name : C:\Users\Momen\Downloads\Conan_S8_357.mkv
Format : Matroska
Format version : Version 2
File size : 439 MiB
Duration : 24mn 1s
Overall bit rate mode : Variable
Overall bit rate : 2 554 Kbps
Encoded date : UTC 2013-05-14 22:14:24
Writing application : mkvmerge v5.8.0 ('No Sleep / Pillow') built on Sep 2 2012 15:37:04
Writing library : libebml v1.2.3 + libmatroska v1.3.0


Video
ID : 1
Format : MPEG Video
Format version : Version 2
Format profile : Main@Main
Format settings, BVOP : No
Format settings, Matrix : Custom
Codec ID : V_MPEG2
Codec ID/Info : MPEG 1 or 2 Video
Bit rate mode : Variable
Bit rate : 2 375 Kbps
Maximum bit rate : 15.0 Mbps
Width : 720 pixels
Height : 576 pixels
Display aspect ratio : 4:3
Frame rate mode : Variable
Original frame rate : 25.000 fps
Standard : PAL
Color space : YUV
Chroma subsampling : 4:2:0
Bit depth : 8 bits
Scan type : Interlaced
Scan order : Top Field First
Compression mode : Lossy
Language : Arabic
Default : No
Forced : No


Audio
ID : 2
Format : MPEG Audio
Format version : Version 1
Format profile : Layer 2
Muxing mode : Header stripping
Codec ID : A_MPEG/L2
Codec ID/Hint : MP2
Duration : 24mn 1s
Bit rate mode : Constant
Bit rate : 128 Kbps
Channel(s) : 2 channels
Sampling rate : 48.0 KHz
Compression mode : Lossy
Delay relative to video : 20ms
Stream size : 22.0 MiB (5%)
Language : Arabic
Default : Yes
Forced : No





[/Hides]













http://star-dima.com/download/817731/


[Grad]^v^v^v^v^v^v^v^v^v^v^v^v^v^v^v^v^v^v^v^v^v^v^[/Grad]




الحلقة 358 من المسلسل و هي الحلقة 6 من الجزءالثامن.




عنوان الحلقة هو: جريمةٌ في سيارة فاخرة (الجزء الاول)



الحجم 433 mb
الصيغة mkv


[Hides=MediaInfo] General
Unique ID : 207951464150337026949789505458827241302 (0x9C71FEC406D6C1B4B73AC24728952756)
Complete name : F:\Movies\Cartoon\Detective Conan\Conan_S8_358.mkv
Format : Matroska
Format version : Version 2
File size : 434 MiB
Duration : 23mn 54s
Overall bit rate mode : Variable
Overall bit rate : 2 535 Kbps
Encoded date : UTC 2013-05-13 18:32:54
Writing application : mkvmerge v5.8.0 ('No Sleep / Pillow') built on Sep 2 2012 15:37:04
Writing library : libebml v1.2.3 + libmatroska v1.3.0


Video
ID : 1
Format : MPEG Video
Format version : Version 2
Format profile : Main@Main
Format settings, BVOP : No
Format settings, Matrix : Custom
Codec ID : V_MPEG2
Codec ID/Info : MPEG 1 or 2 Video
Bit rate mode : Variable
Bit rate : 2 357 Kbps
Maximum bit rate : 15.0 Mbps
Width : 720 pixels
Height : 576 pixels
Display aspect ratio : 4:3
Frame rate mode : Variable
Original frame rate : 25.000 fps
Standard : PAL
Color space : YUV
Chroma subsampling : 4:2:0
Bit depth : 8 bits
Scan type : Interlaced
Scan order : Top Field First
Compression mode : Lossy
Language : Arabic
Default : No
Forced : No


Audio
ID : 2
Format : MPEG Audio
Format version : Version 1
Format profile : Layer 2
Muxing mode : Header stripping
Codec ID : A_MPEG/L2
Codec ID/Hint : MP2
Duration : 23mn 54s
Bit rate mode : Constant
Bit rate : 128 Kbps
Channel(s) : 2 channels
Sampling rate : 48.0 KHz
Compression mode : Lossy
Delay relative to video : 16ms
Stream size : 21.9 MiB (5%)
Language : Arabic
Default : Yes
Forced : No




[/Hides]













http://star-dima.com/download/817741/










ملاحظة: جميع حقوق المسلسل هي لقناة سبيس توون، انا فقط اسجل الحلقات لمحبي المحقق كونان.


وآمل ان يعجبكم الموضوع و لا تنسو الشكر.



أخوكم abc_321

سوف تضاف الحلقات الجديدة في نفس هذا الموضوع، بعد بثها مباشراً!

مع العلم ان هذا موضوع حصري ل stardima.com، ويمنع نقله منعاً باتاً الا بموافقة ادارة الموقع.


رد مع اقتباس
  #2  
قديم 04-30-2013, 04:16 AM
الصورة الرمزية HeRo Boy
 
تاريخ التسجيل: Nov 2012
الدولة: الامارات
العمر: 17
المشاركات: 2,168
معدل تقييم المستوى: 10
HeRo Boy has a reputation beyond reputeHeRo Boy has a reputation beyond reputeHeRo Boy has a reputation beyond reputeHeRo Boy has a reputation beyond reputeHeRo Boy has a reputation beyond reputeHeRo Boy has a reputation beyond reputeHeRo Boy has a reputation beyond reputeHeRo Boy has a reputation beyond reputeHeRo Boy has a reputation beyond reputeHeRo Boy has a reputation beyond reputeHeRo Boy has a reputation beyond repute
افتراضي رد: المحقق كونان الجزء الثامن مدبلج!

مدهش منك يا غالي
__________________
مدونتي [هنا]


التواصل عبر الدردشة لن اقبل
لمواصلتي يكون عبر هذا الطرق

Ben 10 Alien Swarm
translated 75%



رد مع اقتباس
  #3  
قديم 04-30-2013, 06:28 AM
مشرفة سابقة
 
تاريخ التسجيل: Oct 2012
الدولة: ........
المشاركات: 1,794
معدل تقييم المستوى: 0
داانة is a name known to allداانة is a name known to allداانة is a name known to allداانة is a name known to allداانة is a name known to allداانة is a name known to all
افتراضي رد: المحقق كونان الجزء الثامن مدبلج!

يَسسسسلموو .. على الفلم الرررراائــــعْ كرة=


وبنتظـــآآآر جديدكْْْ ~~
pleased

بالتوووفييقْْ ^_^
نداء=
رد مع اقتباس
  #4  
قديم 05-05-2013, 01:06 PM
 
تاريخ التسجيل: Jan 2013
العمر: 19
المشاركات: 2
معدل تقييم المستوى: 0
qatar ownz is on a distinguished road
افتراضي رد: المحقق كونان الجزء الثامن مدبلج!

جزاك الله خير اخوي على الحلقتين الحلوة
الله يعطيك العافية و استمر يا بطل
رد مع اقتباس
  #5  
قديم 05-05-2013, 11:35 PM
 
تاريخ التسجيل: May 2013
العمر: 29
المشاركات: 2
معدل تقييم المستوى: 0
lover618 is on a distinguished road
افتراضي رد: المحقق كونان الجزء الثامن مدبلج!

جزاك الله خيرا و لكن مع الاسف الروابط غير شغالة عندي
يرجى اعادة رفعها و شكرا لك
في الانتظار يا غالي.
موفق
رد مع اقتباس
  #6  
قديم 05-09-2013, 02:33 PM
الصورة الرمزية ςσςσ staя
 
تاريخ التسجيل: Nov 2011
الدولة: EgypT ♥♥
المشاركات: 1,407
معدل تقييم المستوى: 4
ςσςσ staя is a splendid one to beholdςσςσ staя is a splendid one to beholdςσςσ staя is a splendid one to beholdςσςσ staя is a splendid one to beholdςσςσ staя is a splendid one to beholdςσςσ staя is a splendid one to beholdςσςσ staя is a splendid one to behold
افتراضي رد: المحقق كونان الجزء الثامن مدبلج!

* السلآم عليكم ورحمـة الله وبركآته *

تسلم إيدك يابـرنس ع الموضوع وشكرآ على التعديـل جااارى التقييم + 5 نجووووم

* بالتوفيق وتحيآآتى *
__________________



رد مع اقتباس
  #7  
قديم 05-12-2013, 12:46 AM
 
تاريخ التسجيل: May 2013
العمر: 29
المشاركات: 2
معدل تقييم المستوى: 0
lover618 is on a distinguished road
افتراضي رد: المحقق كونان الجزء الثامن مدبلج!

مع الاسف الروابط لازالت غير شغالة
خخخخخخخخخ
رد مع اقتباس
  #8  
قديم 05-12-2013, 06:05 PM
 
تاريخ التسجيل: Jan 2012
الدولة: الامارات العربيه المتحده
المشاركات: 5
معدل تقييم المستوى: 0
حمود المهيري is on a distinguished road
افتراضي رد: المحقق كونان الجزء الثامن مدبلج!

كيفك ستارديما كيف اقدر احمل الحلقات ارجو المساعدة .... في انتظار المزيد منك و شكرا
رد مع اقتباس
  #9  
قديم 05-12-2013, 10:28 PM
 
تاريخ التسجيل: Nov 2012
المشاركات: 51
معدل تقييم المستوى: 0
زيااااد is on a distinguished road
افتراضي رد: المحقق كونان الجزء الثامن مدبلج!

تم تعديل الروابط!

مشاهدة ممتعة !!!big_smile
رد مع اقتباس
  #10  
قديم 05-17-2013, 11:36 PM
 
تاريخ التسجيل: Feb 2013
العمر: 23
المشاركات: 1
معدل تقييم المستوى: 0
MedoBaraka is on a distinguished road
افتراضي رد: المحقق كونان الجزء الثامن مدبلج!

المحقق كونان الجزء الثامن مدبلج! (الموضوع يجدد يومياً)
رد مع اقتباس
إضافة رد

مواقع النشر (المفضلة)

أدوات الموضوع
انواع عرض الموضوع

تعليمات المشاركة
لا تستطيع إضافة مواضيع جديدة
لا تستطيع الرد على المواضيع
لا تستطيع إرفاق ملفات
لا تستطيع تعديل مشاركاتك

BB code is متاحة
كود [IMG] متاحة
كود HTML معطلة
Trackbacks are متاحة
Pingbacks are متاحة
Refbacks are معطلة


المواضيع المتشابهه
الموضوع كاتب الموضوع المنتدى مشاركات آخر مشاركة
المحقق كونان الجزء الخامس مدبلج جودة dvd وعلى أكثر من سيرفر + مشاهدة مباشرة stardima ₪ منتدى مسلسلات الأنمي للشباب ₪ 49 12-31-2013 02:54 PM
بانفراد تام مع مواسم المحقق كونان المثيرة والمشوقة والآن مع المحقق كونان الموسم الرابع مدبلج كاملا ولأول مرة بالجودة لعالية hd على ميدافير stardima ₪ منتدى مسلسلات الأنمي للشباب ₪ 10 12-31-2013 02:50 PM
بانفراد تام مع مواسم المحقق كونان المثيرة والمشوقة والآن مع المحقق كونان الموسم الثاني مدبلج كاملا ولأول مرة بالجودة لعالية hd على ميديافير stardima ₪ منتدى مسلسلات الأنمي للشباب ₪ 13 12-30-2013 02:34 PM
بانفراد تام مع مواسم المحقق كونان المثيرة والمشوقة والآن مع المحقق كونان الموسم الخامس مدبلج كاملا ولأول مرة بالجودة لعالية hd على ميديافير stardima ₪ منتدى مسلسلات الأنمي للشباب ₪ 20 11-03-2013 02:08 AM
بانفراد تام مع مواسم المحقق كونان المثيرة والمشوقة والآن مع المحقق كونان الموسم السادس مدبلج كاملا ولأول مرة بالجودة لعالية hd على ميديافير stardima ₪ منتدى مسلسلات الأنمي للشباب ₪ 28 11-02-2013 09:40 AM

Powered by vBulletin® Copyright ©2000 - 2014, Jelsoft Enterprises Ltd.
Search Engine Friendly URLs by vBSEO 3.6.0 PL2 TranZ By Almuhajir
ستارديما عالم جميل من المفاجآات

Security team